How to Train Your Dragon 2 (2014) x 1628 Torrent Free Download

Seeders : 623   &   Leechers : 140      12-01-2019 (1 week)
How to Train Your Dragon 2 (2014) x 1628 Torrent Download
Added: ago by PhunPsyz ***** in Movies   3.0 GB   Hits : 20
Info Hash: E171C6A3CC1F0974FBA429A41C869E6C6848A27F Download
How to Train Your Dragon 2 (2014) x 1628 Torrent Download

Anonymous and Direct Download movies , software , shows...

Fast Safe Anonymous
movies, software, shows...
How to Train Your Dragon
Animation /Action /Adventure /Comedy /Family /Fantasy  .   98 min   8.1/10
Director : Dean DeBlois  Chris Sanders  
Tags: How  to  Train  Your  Dragon  2  

Released:
26 Mar 2010
Long ago up North on the Island of Berk, the young Viking, Hiccup, wants to join his town's fight against the dragons that continually raid their town. However, his macho father and village leader, Stoik the Vast, will not allow his small, clumsy, but inventive son.... See More to do so. Regardless, Hiccup ventures out into battle and downs a mysterious Night Fury dragon with his invention, but can't bring himself to kill it. Instead, Hiccup and the dragon, whom he dubs Toothless, begin a friendship that would open up both their worlds as the observant boy learns that his people have misjudged the species. But even as the two each take flight in their own way, they find that they must fight the destructive ignorance plaguing their world.

Torrent Description



www.imdb.com/title/tt1646971/

When Hiccup and Toothless discover an ice cave that is home to hundreds of new wild dragons and the mysterious Dragon Rider, the two friends find themselves at the center of a battle to protect the peace.

Source: FGT 4K HDR Remux







Format : Matroska
Format version : Version 4 / Version 2
File size : 3.03 GiB
Duration : 1 h 41 min
Overall bit rate : 4 253 kb/s

Video
ID : 1
Format : HEVC
Format/Info : High Efficiency Video Coding
Format profile : Main [email protected]@High
Codec ID : V_MPEGH/ISO/HEVC
Duration : 1 h 41 min
Bit rate : 3 848 kb/s
Width : 3 840 pixels
Height : 1 628 pixels
Display aspect ratio : 2.35:1
Frame rate mode : Constant
Frame rate : 23.976 (24000/1001) FPS
Color space : YUV
Chroma subsampling : 4:2:0
Bit depth : 10 bits
Bits/(Pixel*Frame) : 0.026
Stream size : 2.74 GiB (90%)
Writing library : x265 2.6:[Windows][GCC 7.3.0][64 bit] 10bit

Audio
ID : 2
Format : AC-3
Format/Info : Audio Coding 3
Commercial name : Dolby Digital
Codec ID : A_AC3
Duration : 1 h 41 min
Bit rate mode : Constant
Bit rate : 320 kb/s
Channel(s) : 6 channels
Channel layout : L R C LFE Ls Rs
Sampling rate : 48.0 kHz
Frame rate : 31.250 FPS (1536 SPF)
Bit depth : 16 bits
Compression mode : Lossy
Stream size : 233 MiB (8%)
Title : Surround
Language : English

Text
Language : English
Language : English
Language : English
Language : Italian
Language : Spanish
Language : Portuguese
Language : Czech
Language : Hungarian
Language : Polish
Language : English
Language : Italian
Language : Spanish
Language : Catalan
Language : Portuguese
Language : Czech
Language : Hungarian
Language : Polish
Default : No
Forced : No




Sharing Widget


No Comments For This Torrent . Be The First to Comment

You must Login to Comment . Click Here to Login

Menu 1

Some content in menu 1.

How to Train Your Dragon 2 (2014) x 1628 (2160p) HDR 5 1 x265 10bit Ph (Size: 3.0 GB)
  How to Train Your Dragon 2 (2014) x 1628 (2160p) HDR 5 1 x265 10bit Ph 3.0 GB
tracker name
udp://tracker.leechers-paradise.org:6969/announce
udp://zer0day.ch:1337/announce
udp://open.demonii.com:1337/announce
udp://tracker.coppersurfer.tk:6969/announce
udp://exodus.desync.com:6969/announce
µTorrent compatible trackers list

Relative Torrents

Torrent Name Size Age SEED LEECH
Blood Runs Cold S01E05 HDTV x264-W4F
Posted by    Trige   in   TV
206.0 MB 1 minute 324 334
Paris 2015 S01E05 720p HDTV x264-CBFM [etv]
Posted by    EZTVag   in   TV
832.1 MB 1 minute 749 604
VA – Kamsutra Chillout Lounge – Spic Sensual India Exotic Music (2019) Mp3
Posted by    freemusicdl   in   Music
222.6 MB 4 minutes 37 340
The Boy Downstairs 2017 BRRip XviD MP3-XID
Posted by    Trige   in   Movies
982.4 MB 7 minutes 595 208
A Star is Born 2018 HDRip XviD AC3 LLG
Posted by    LifeLongg   in   Movies
1.2 GB 7 minutes 889 365
The Magic Hockey ... | The Stronghold 2017 TRUEFRENCH HDRiP XViD-STVFRV [ ] | 1x12 El Bosque del Piano